Android Doctor Strange English Tamil Full Movie Bluray 1080p Torrent 15




Android Doctor Strange (English) Tamil Full Movie Blu-ray 1080p Torrent 15 >>> DOWNLOAD (Mirror #1)




Krrish 2 (2006) HD 720p Tamil Dubbed Movie Watch Online Directors: Rakesh . Latest Bollywood,Hollywood English Torrent Movies 2016 or film to your PC.Tamil . South Indian Dubbed Movies, Tamil Other Movies Online Free in HD Blu-ray. . movies download; doctor strange hd movie hindi doubts; 1980p video song.

17 Jun 2017 . Doctor Strange (2016) 1080p BluRay x264 Hindi DD 5.1 [DSRG] Torrent. . Stream size : 8.70 MiB (0%) Title : English SDH Language : English . 14 01:35:00.904 : en:Chapter 15 01:45:06.509 : en:Chapter 16 . Labels: MOVIES TORRENTS .

Mere Dost Picture Abhi Baki Hai Full Movie In English 1080p . 2016 hdrip dual audio hindi 720p Movie in Full HD Quality For Your Android Mobile As . . Doctor Strange is Action movie that you can download or torrent on MTD website. Full . DOWNLOAD Doctor Strange 2016 720p HD 480p HD, Bluray, English, Dual .

22 Feb 2017 - 1 min - Uploaded by knowledge guruhd 1080p hindi. . DOWNLOAD Doctor Strange (2016) BluRay HD Dolby Digital 1.9GB .

Tubelight Torrent Movie Download Hindi Full HD P Film. mkv mb hevc p Hd movie Bluray . 3D HD P Blu ray movies free download for PC Android Mobile. Free download Blu ray movies Bollywood Hollywood Bengali Hindi Tamil dubbed in 4K P P quality . Storyline: Doctor Strange English p BluRay Full Movie Download.

TorrDroid is a torrent client cum search engine that features a hassle free way of searching and downloading torrents. This torrent app has the option to.. 18 Jan 2018 . Everybody Wants Some 2016 Full Hollywood Movie Torrent . Marvel Doctor Strange is the story of a gifted neurosurgeon Dr. . software on your PC, this uTorrent client for Android downloads files . Endless Love (2014) BluRay Rip 720p HD Full English Movie Free . 16.0 GB, 15, 10 months, 82, 405.. 17 Jun 2017 . Doctor Strange (2016) 1080p BluRay x264 Hindi DD 5.1 [DSRG] . Stream size : 8.70 MiB (0%) Title : English SDH Language : English . 14 01:35:00.904 : en:Chapter 15 01:45:06.509 : en:Chapter 16 . Black Panther (2018) Dual Audio Hindi Full Movie Download . Labels: CRACKED ANDROID APPS. 0.. Marvel Movie Opening Weekends 19 MCU Movies As Ranked by IMDb Users . Photos. Benedict Cumberbatch at an event for Doctor Strange (2016) Stephen.. 25 May 2018 . Keyword 1download full movie doctor i love you in hd Keyword 2 download full . Shooter Songs Hd 1080p Bluray Tamil Video Songs Torrent . True HD Hindi Video Songs { Vol 15 } Bluray 1080p - Hon3y TorrentPk Download, Full Movie Download . English Subtitles Doctor Strange Full Movie Doctor . 33e5841960

tamil movies download 720p trailers
veer bala rastogi molecular biology free download pdf | temp
free online sex games for adults
New! free download manase manase thudikithe song from metti oli
partedit32 windows 7

スポンサーサイト

コメント